Details for this torrent 


Type SE
Warning! Use a VPN When Downloading Torrents!
Your ISP is tracking your torrent activity Including your IP Address and your Location!
We strongly recommend using ExpressVPN to anonymize your torrenting. 30 Day Money Back Guarantee!
HIDE MY IP
King's X - Gretchen Goes To Nebraska (1989) (PBTHAL 24-96) FLAC
Type:
Audio > FLAC
Files:
16
Size:
1.12 GiB (1201168107 Bytes)
Uploaded:
2020-11-22 07:55:26 GMT
By:
vtwin88cube VIP
Seeders:
4
Leechers:
2
Comments
0  

Info Hash:
6867D9B519999A4248842E7CB1B0C1DB0647E374







(Problems with magnets links are fixed by upgrading your torrent client!)
King's XGretchen Goes To Nebraska (1989)FLAC LOSSLESS 24bit-96kHzPBTHAL Vinyl Ripallmusic.com...It seemed inconceivable that Houston's King's X would ever top the brilliance and originality of their debut, but 1989's Gretchen Goes to Nebraska did just that, taking their unique sound to unprecedented heights of invention and inspiration. With its interweaving vocals, ominous bass riff, and sitar flourishes, the dark "Out of the Silent Planet" truly sounds not of this earth. Even more stunning is the band's immediate about-face into the joyous gospel fervor of their signature song, "Over My Head," a celebration of music fit for any Sunday congregation. Anyone finding fault with the band's Christian beliefs will certainly be silenced by the televangelist-bashing "Mission" and the Galileo homage "Pleiades." And although the dreamy "Summerland" and the guitar-driven "Send a Message" are somewhat reminiscent of the first album's "Goldilox" and "King," respectively, each still stands on its own merits. The band's fantastic vocal harmonies lead the way on "Fall on Me" and "Everybody Knows a Little Bit of Something," and "The Burning Down" provides a perfect, mysterious parting shot. foobar2000 1.4.3 / Dynamic Range Meter 1.1.1log date: 2020-11-21 20:47:15--------------------------------------------------------------------------------Analyzed: King's X / Gretchen Goes To Nebraska--------------------------------------------------------------------------------DR         Peak         RMS     Duration Track--------------------------------------------------------------------------------DR14      -1.03 dB   -17.29 dB      5:46 01-Out Of The Silent PlanetDR13      -1.08 dB   -16.83 dB      4:47 02-Over My HeadDR13      -1.89 dB   -16.46 dB      3:18 03-SummerlandDR13      -1.08 dB   -16.72 dB      3:58 04-Everybody Knows A Little Bit Of SomethingDR12      -3.03 dB   -17.92 dB      3:08 05-The Difference (In The Garden Of St. Anne's-On-The-Hill)DR13      -1.92 dB   -17.43 dB      4:58 06-I'll Never Be The SameDR14      -0.70 dB   -16.28 dB      5:02 07-MissionDR13      -2.35 dB   -17.20 dB      4:05 08-Fall On MeDR12      -2.32 dB   -16.73 dB      4:43 09-PleiadesDR13      -2.66 dB   -17.32 dB      3:06 10-Don't Believe It (It's Easier Said Than Done)DR13      -2.08 dB   -17.00 dB      4:03 11-Send A MessageDR12      -2.68 dB   -18.26 dB      5:28 12-The Burning DownNumber of tracks:  12Official DR value: DR13Samplerate:        96000 HzChannels:          2Bits per sample:   24Bitrate:           2917 kbpsCodec:             FLACSupport the artists...buy it if you like it!Thanks for Seeding!Cheers! ;)




Type SE
Warning! Use a VPN When Downloading Torrents!
Your ISP is tracking your torrent activity Including your IP Address and your Location!
We strongly recommend using ExpressVPN to anonymize your torrenting. 30 Day Money Back Guarantee!
HIDE MY IP

Bitcoin (BTC Only) : 1z8Tep4BNS79W3kYH8CHA8tWj6nuHYcCM
TRON (TRX Only) : 0x705c127743410c23f69e3f56ac0a654879181c41

The Pirate bay proxy List
Pirate bay proxy list